#TITLE:Jumping;
#SUBTITLE:SDO China lv23 - [N]hok[Q] Simfile;
#ARTIST:Kara;
#TITLETRANSLIT:;
#SUBTITLETRANSLIT:;
#ARTISTTRANSLIT:;
#CREDIT:[N]hok[Q];
#BANNER:bn-jumping.png;
#BACKGROUND:bg-jumping.png;
#LYRICSPATH:;
#CDTITLE:cd-junping.png;
#MUSIC:Jumping.mp3;
#OFFSET:-0.024;
#SAMPLESTART:47.643;
#SAMPLELENGTH:12.000;
#SELECTABLE:YES;
#DISPLAYBPM:126.000;
#BPMS:0.000=126.006,2.000=126.001,6.000=125.995,7.000=126.006,9.000=126.001,13.000=125.995,14.000=126.006,16.000=126.001,20.000=125.995,21.000=126.006,23.000=126.001,27.000=84.088,27.500=251.177,28.000=126.006,30.000=126.001,35.000=125.995,36.000=126.006,38.000=126.001,43.000=125.995,44.000=126.006,45.000=126.001,46.000=126.006,47.000=126.001,50.000=125.995,51.000=126.001,52.000=126.006,53.000=126.001,54.000=126.006,55.000=126.001,58.000=125.995,59.000=126.001,60.000=126.006,61.000=126.001,62.000=126.006,63.000=126.001,66.000=125.995,67.000=126.001,68.000=126.006,69.000=126.001,70.000=126.006,71.000=126.001,74.000=125.995,75.000=126.001,76.000=126.006,77.000=126.001,78.000=126.006,79.000=126.001,82.000=125.995,83.000=126.001,84.000=126.006,85.000=126.001,86.000=126.006,87.000=126.001,90.000=125.995,91.000=126.001,94.000=125.995,95.000=126.001,98.000=125.995,99.000=126.001,102.000=125.995,103.000=126.001,106.000=125.995,107.000=126.001,110.000=125.995,111.000=126.001,114.000=125.995,115.000=126.001,118.000=125.995,119.000=126.001,122.000=125.995,123.000=126.001,126.000=125.995,127.000=126.001,128.000=84.092,128.500=251.177,129.000=84.092,129.500=251.177,130.000=84.088,130.500=251.177,131.000=126.001,134.000=125.995,135.000=126.001,138.000=125.995,139.000=126.001,142.000=125.995,143.000=84.092,143.500=251.177,144.000=63.000,145.000=62.999,146.000=126.001,148.000=125.995,149.000=126.001,152.000=125.995,153.000=126.001,154.000=84.092,154.500=251.177,155.000=126.001,156.000=125.995,157.000=126.001,160.000=125.995,161.000=126.001,162.000=84.092,162.500=251.177,163.000=126.001,164.000=125.995,165.000=126.001,166.000=84.092,166.500=251.177,167.000=126.001,168.000=125.995,169.000=126.001,172.000=125.995,173.000=126.001,176.000=125.995,177.000=126.001,180.000=125.995,181.000=126.001,187.000=126.006,188.000=126.001,194.000=126.006,195.000=126.001,214.000=126.006,215.000=126.001,221.000=126.006,222.000=126.001,240.000=126.006,241.000=126.001;
#STOPS:;
#BGCHANGES:;
// cache tags:
#FIRSTBEAT:4.000;
#LASTBEAT:241.000;
#SONGFILENAME:Songs/Super Dancer Online/Jumping/Jumping.sm;
#HASMUSIC:1;
#HASBANNER:1;
#MUSICLENGTH:118.032;
// end cache tags

//---------------dance-single - ----------------
#NOTES:
     dance-single:
     :
     Hard:
     23:
     1.000,1.000,1.000,0.398,0.771,646.000,461.000,47.000,0.000,260.000:
0000
0000
0000
0000
,
1100
0010
0100
1000
0111
1000
0100
1000
0110
0001
0010
0001
1110
0001
0010
0001
,
0110
1000
0100
1000
0111
1000
0100
0010
1100
0010
0100
1000
0111
1000
0100
1000
,
0110
0001
0010
0001
1110
0001
0010
0100
0011
0100
0010
0001
1110
0001
0010
0001
,
0110
1000
0100
1000
0111
1000
0100
1000
0110
0001
0010
0001
1110
0001
0010
0001
,
1100
0110
0001
0110
0111
0000
0110
1100
0001
1100
0110
0000
1110
0000
0110
0001
,
0110
1100
0001
0110
0111
0000
0011
0110
1000
0110
0011
1000
0112
0000
0000
0000
,
0113
1100
0001
0110
0111
0000
0011
0110
0001
0110
1100
0000
0111
0000
0110
0000
,
1100
0110
0001
0110
0111
0110
1000
0000
0111
0000
1110
0000
1110
0111
1000
0000
,
2100
0000
0001
0000
0111
0000
0001
0110
3001
0110
1100
0000
0111
0000
1000
1000
,
0012
0000
1000
0000
1110
0000
1000
0110
1003
0110
0011
0000
1110
0000
0001
0001
,
1100
0110
1000
0110
0111
0000
0110
1100
0001
1100
0110
0000
1110
0000
0011
0000
,
1100
0110
0011
0110
1100
0110
0011
0110
1110
0111
1110
0111
2110
0000
3112
0000
,
1103
0000
0010
0001
1110
0000
0110
0001
1000
0000
0001
0001
1110
0000
0011
1000
,
0100
0000
0010
0001
1110
0000
0001
0001
0100
0000
0010
0001
1110
0000
0110
1000
,
0011
0000
0100
1000
0111
0000
0110
1000
0001
0000
0100
1000
0111
0000
0110
0000
,
1000
0000
0010
0001
1110
0000
0001
0001
0010
0000
0100
1000
0111
0000
1100
0001
,
0110
0000
1000
1000
0111
0000
0110
1000
0100
0000
0001
0001
1110
0000
0110
0000
,
0011
0000
1000
1000
0111
0000
0110
1000
0100
0000
0001
0001
1110
0000
1100
0001
,
0110
0000
1000
1000
0111
0000
0011
1000
0001
0000
0100
1000
0111
0000
0011
1000
,
0112
0000
1100
0110
1100
0000
0110
0000
1100
0010
1100
0010
1100
0010
1100
0000
,
0113
0011
1110
0011
2110
0011
0111
0011
,
3112
0000
1100
0000
1110
0000
0110
1100
0010
1100
0110
0000
1110
0000
0110
0000
,
2113
0110
0111
0011
0110
0011
0111
0110
,
3112
0000
1100
0000
1110
0000
0110
1100
0010
1100
0110
0000
1110
0000
0110
0000
,
0113
0000
0011
0000
1110
0110
0001
0110
2001
0110
0011
0000
0111
0000
0011
0000
,
3112
0000
0110
0000
1110
1100
0010
1100
0010
1100
0110
0000
1110
0000
0110
0000
,
0113
0000
1000
1000
0111
0000
1000
1000
0001
0000
0110
0001
1110
0000
0110
1000
,
0011
0100
0010
0001
1110
0001
0010
0100
0011
0011
1100
1100
0111
0000
1110
0000
,
2110
0011
3110
1100
0110
0011
1110
0111
,
2110
0011
3110
1100
0110
0011
1110
0111
,
2110
0011
3110
0111
1100
0110
0011
0110
,
2011
0000
3121
0000
1132
0000
1113
0111
,
1110
0000
0011
0000
0110
0000
0011
0000
1000
0110
1100
0000
1110
0000
0111
0000
,
1110
0000
0011
0000
0110
0000
0011
0000
1000
0110
1100
0000
0111
0000
1110
0000
,
0111
0000
1110
0000
0111
0000
1100
0110
0001
1100
0110
0000
0112
0000
0000
0000
,
2103
0110
0011
0110
0011
0110
0011
0110
3110
0000
0011
0000
0110
0000
1100
0000
,
0110
0000
0011
0000
0110
0000
1100
0000
0011
0000
0110
0000
1100
0000
0110
0011
,
1000
0110
0011
0000
2110
0000
3112
0000
2113
0000
0000
0000
3110
0000
0011
0000
,
0110
0000
1100
0000
0110
0000
0011
0000
0110
0000
1100
0000
0110
0000
0011
0110
,
0001
1100
0110
0000
0112
0000
1123
0000
2131
0000
0000
0000
3110
0000
0110
0011
,
1000
0110
1100
0000
0112
0000
1123
0000
2131
0000
0000
0000
3110
0011
1000
0110
,
0001
0110
1100
0000
0112
0000
2113
0000
3121
0000
1000
0000
0100
0000
0001
0000
,
0001
1230
0001
2310
0002
0000
3000
1100
,
1113
0000
0110
1100
0011
0000
0110
0000
2100
0000
0110
0000
0111
0000
0110
0000
,
0011
0000
0110
0000
3111
0000
1100
0000
0112
0000
1100
0000
1110
0000
0110
1100
,
0010
1100
1123
0000
1231
0000
0011
0000
1312
0000
0110
0000
1113
0000
0111
1110
,
0011
1110
0111
0000
2110
0000
0011
0000
3112
0000
0110
0000
1110
0000
0110
1100
,
0010
1100
2113
0000
0111
0000
0110
0000
0011
0000
3110
0000
0111
0000
0011
0110
,
0001
1100
0110
0000
0111
0000
1100
0000
0110
0000
0011
0000
1110
0000
1100
0110
,
1000
0011
0110
0000
1110
0000
0011
0000
0110
0000
1100
0000
0111
0000
1110
0111
,
1000
0111
1110
0000
0111
0000
0001
0001
1100
0000
0111
0000
1000
0000
0111
1110
,
0001
0110
1100
0001
1210
1000
0001
0000
0311
0110
0001
1100
0111
0000
0011
0110
,
0001
1100
0110
0000
1110
0000
0011
0000
0111
1110
0011
1110
0111
0000
0111
1110
,
0001
1110
0111
0000
1110
0000
0001
0000
0110
0011
1000
0110
0111
0000
0110
1100
,
0001
0110
0011
0000
1110
0000
0110
0000
1110
0111
0000
1110
0111
0000
0111
1100
,
0111
1100
0111
0000
1110
0111
1000
0000
2100
0000
0001
0000
0111
0000
0001
0110
,
3001
0110
0011
0000
1110
0000
0011
0000
0112
0000
1100
0000
1110
0000
1000
0110
,
1003
0110
1100
0000
0111
0000
1100
0000
0110
0011
1000
0110
1110
0000
0110
0011
,
1000
0110
1100
0000
0111
0000
0110
0000
2001
0110
0011
0110
0001
0110
0011
0110
,
0001
0110
0011
0110
3111
0000
0000
0000
0000
0000
0000
0000
0000
0000
0000
0000
,
0000
0000
0000
0000
,
0000
0000
0000
0000
,
0000
0000
0000
0000
;

//---------------dance-solo - ----------------
#NOTES:
     dance-solo:
     :
     Hard:
     23:
     1.000,1.000,1.000,0.398,0.771,646.000,462.000,47.000,0.000,261.000:
000000
000000
000000
000000
,
101000
000010
000100
010000
010101
100000
010000
100000
001010
000001
000010
000001
110100
000001
000100
000001
,
001010
100000
001000
100000
010101
100000
010000
000010
101000
000010
001000
100000
010101
100000
010000
100000
,
001010
000001
000010
000001
110100
000001
000100
010000
000011
010000
000010
000001
110100
000001
000100
000001
,
001010
100000
010000
100000
010101
100000
010000
100000
001010
000001
000010
000001
110100
000001
001000
000001
,
101000
001010
000001
010100
010101
000000
001010
101000
000001
110000
010100
000000
101010
000000
001010
000001
,
010100
110000
000001
001010
001011
000000
000101
010100
100000
001010
000011
100000
010102
000000
000000
000000
,
001013
101000
000001
010100
010101
000000
000011
001010
000001
001010
110000
000000
010101
000000
010100
000000
,
101000
001010
000001
010100
010101
010100
100000
000000
001011
000000
101010
000000
110100
010101
100000
000000
,
201000
000000
000001
000000
010011
000000
000001
010100
300001
010100
101000
000000
001011
000000
100000
100000
,
001002
000000
100000
000000
110010
000000
100000
001010
100003
001010
000101
000000
110100
000000
000001
000001
,
101000
001010
100000
010100
010101
000000
001010
101000
000001
110000
010100
000000
110100
000000
000011
000000
,
101000
001010
000101
010100
101000
001010
000101
010100
110100
001011
101010
001011
210100
000000
310102
000000
,
101003
000000
000010
000001
110100
000000
010100
000001
100000
000000
000001
000001
101010
000000
000011
100000
,
010000
000000
000100
000001
110100
000000
000001
000001
001000
000000
000010
000001
110100
000000
010100
100000
,
000011
000000
001000
100000
001011
000000
010100
100000
000001
000000
010000
100000
001011
000000
001010
000000
,
100000
000000
000100
000001
110100
000000
000001
000001
000010
000000
001000
100000
001011
000000
110000
000001
,
010100
000000
100000
100000
001011
000000
001010
100000
010000
000000
000001
000001
110100
000000
010100
000000
,
000011
000000
100000
100000
001011
000000
001010
100000
010000
000000
000001
000001
110100
000000
110000
000100
,
011000
000000
100000
100000
010101
000000
000101
100000
000001
000000
001000
100000
001011
000000
000011
100000
,
010102
000000
101000
001010
101000
000000
010100
000000
110000
000010
101000
000010
101000
000010
110000
000000
,
010103
000101
110010
000011
201010
000011
010101
000101
,
310012
000000
101000
000000
101010
000000
010100
110000
000100
110000
010010
000000
101010
000000
001010
000000
,
210103
010100
001011
000011
010100
000101
001011
001010
,
310102
000000
101000
000000
101010
000000
010100
110000
000100
101000
001010
000000
110100
000000
010100
000000
,
001013
000000
000011
000000
110100
010100
000001
001010
200001
001010
000011
000000
010101
000000
000101
000000
,
301012
000000
001010
000000
110100
110000
000100
110000
000010
101000
001010
000000
110100
000000
010100
000000
,
001013
000000
100000
100000
010101
000000
100000
100000
000001
000000
001010
000001
101010
000000
010100
100000
,
000101
010000
000010
000001
101010
000001
000100
010000
000101
000011
101000
101000
001011
000000
110100
000000
,
210100
000011
301010
101000
010100
000101
110010
001011
,
201010
000101
310100
101000
001010
000101
110100
001011
,
201010
000101
310100
001011
101000
010100
000101
001010
,
200011
000000
310201
000000
101302
000000
110013
001011
,
101010
000000
000011
000000
010100
000000
000101
000000
100000
001010
101000
000000
110100
000000
010101
000000
,
101010
000000
000011
000000
010100
000000
000101
000000
100000
001010
101000
000000
010101
000000
110100
000000
,
001011
000000
101010
000000
010101
000000
101000
001010
000001
110000
010100
000000
010102
000000
000000
000000
,
210003
001010
000011
010100
000101
010100
000011
001010
301010
000000
000101
000000
010100
000000
101000
000000
,
001010
000000
000011
000000
010100
000000
101000
000000
000011
000000
010100
000000
101000
000000
001010
000011
,
100000
010100
000101
000000
201010
000000
301012
000000
210103
000000
000000
000000
301010
000000
000101
000000
,
010100
000000
101000
000000
001010
000000
000101
000000
010100
000000
101000
000000
001010
000000
000101
010100
,
000001
101000
001010
000000
010012
000000
110203
000000
210301
000000
000000
000000
301010
000000
001010
000101
,
100000
010100
110000
000000
001012
000000
101203
000000
210301
000000
000000
000000
301010
000011
100000
010100
,
000001
010100
101000
000000
001012
000000
210013
000000
310201
000000
100000
000000
001000
000000
000001
000000
,
000001
120300
000001
230010
000102
000000
300000
101000
,
101013
000000
010010
110000
000101
000000
010100
000000
201000
000000
001010
000000
010101
000000
010100
000000
,
000011
000000
001010
000000
301011
000000
110000
000000
010102
000000
101000
000000
101010
000000
010100
110000
,
000100
101000
101023
000000
120031
000000
000101
000000
130102
000000
001010
000000
101013
000000
010101
110100
,
000101
101010
001011
000000
210100
000000
000101
000000
311002
000000
001010
000000
110100
000000
010100
110000
,
000010
101000
201013
000000
010101
000000
010100
000000
000011
000000
301010
000000
001011
000000
000101
010100
,
000001
101000
001010
000000
010101
000000
101000
000000
001010
000000
000101
000000
110100
000000
101000
001010
,
100000
000101
010100
000000
101010
000000
000101
000000
010100
000000
101000
000000
001011
000000
110100
010101
,
100000
001011
101010
000000
010101
000000
000001
000001
101000
000000
001011
000000
100000
000000
010101
110100
,
000001
001010
101000
000001
120100
100000
000001
000000
030011
001010
000001
101000
010011
000000
000101
010100
,
000001
101000
001010
000000
110100
000000
000101
000000
001011
101010
000101
110100
010101
000000
001011
101010
,
000001
110100
010101
000000
101010
000000
000001
000000
010100
000101
100000
001010
001011
000000
010100
110000
,
000001
001010
000011
000000
110100
000000
010100
000000
101010
001011
000000
110100
010101
000000
001011
101000
,
010101
110000
010101
000000
101010
001011
100000
000000
210000
000000
000001
000000
010101
000000
000001
001010
,
300001
001010
000101
000000
110100
000000
000011
000000
001012
000000
101000
000000
110100
000000
100000
001010
,
100003
001010
110000
000000
010101
000000
101000
000000
001010
000011
100000
010100
110100
000000
001010
000011
,
100000
010100
110000
000000
001011
000000
001010
000000
200001
010100
000101
010100
000001
001010
000011
001010
,
000001
010100
000101
001010
301011
000000
000000
000000
000000
000000
000000
000000
000000
000000
000000
000000
,
000000
000000
000000
000000
,
000000
000000
000000
000000
,
000000
000000
000000
000000
;
